  0
SECTION
  2
HEADER
  9
$ACADVER
  1
AC1014
  9
$ACADMAINTVER
 70
     9
  9
$DWGCODEPAGE
  3
ANSI_1252
  9
$INSBASE
 10
0.0
 20
0.0
 30
0.0
  9
$EXTMIN
 10
1.638470635923142
 20
2.964239561024496
 30
0.0
  9
$EXTMAX
 10
9.572996421214877
 20
9.815223890383904
 30
0.0
  9
$LIMMIN
 10
0.0
 20
0.0
  9
$LIMMAX
 10
12.0
 20
9.0
  9
$ORTHOMODE
 70
     0
  9
$REGENMODE
 70
     1
  9
$FILLMODE
 70
     1
  9
$QTEXTMODE
 70
     0
  9
$MIRRTEXT
 70
     1
  9
$DRAGMODE
 70
     2
  9
$LTSCALE
 40
1.0
  9
$OSMODE
 70
     0
  9
$ATTMODE
 70
     1
  9
$TEXTSIZE
 40
0.2
  9
$TRACEWID
 40
0.05
  9
$TEXTSTYLE
  7
STANDARD
  9
$CLAYER
  8
0
  9
$CELTYPE
  6
BYLAYER
  9
$CECOLOR
 62
   256
  9
$CELTSCALE
 40
1.0
  9
$DELOBJ
 70
     1
  9
$DISPSILH
 70
     0
  9
$DIMSCALE
 40
1.0
  9
$DIMASZ
 40
0.18
  9
$DIMEXO
 40
0.0625
  9
$DIMDLI
 40
0.38
  9
$DIMRND
 40
0.0
  9
$DIMDLE
 40
0.0
  9
$DIMEXE
 40
0.18
  9
$DIMTP
 40
0.0
  9
$DIMTM
 40
0.0
  9
$DIMTXT
 40
0.18
  9
$DIMCEN
 40
0.09
  9
$DIMTSZ
 40
0.0
  9
$DIMTOL
 70
     0
  9
$DIMLIM
 70
     0
  9
$DIMTIH
 70
     1
  9
$DIMTOH
 70
     1
  9
$DIMSE1
 70
     0
  9
$DIMSE2
 70
     0
  9
$DIMTAD
 70
     0
  9
$DIMZIN
 70
     0
  9
$DIMBLK
  1

  9
$DIMASO
 70
     1
  9
$DIMSHO
 70
     1
  9
$DIMPOST
  1

  9
$DIMAPOST
  1

  9
$DIMALT
 70
     0
  9
$DIMALTD
 70
     2
  9
$DIMALTF
 40
25.4
  9
$DIMLFAC
 40
1.0
  9
$DIMTOFL
 70
     0
  9
$DIMTVP
 40
0.0
  9
$DIMTIX
 70
     0
  9
$DIMSOXD
 70
     0
  9
$DIMSAH
 70
     0
  9
$DIMBLK1
  1

  9
$DIMBLK2
  1

  9
$DIMSTYLE
  2
STANDARD
  9
$DIMCLRD
 70
     0
  9
$DIMCLRE
 70
     0
  9
$DIMCLRT
 70
     0
  9
$DIMTFAC
 40
1.0
  9
$DIMGAP
 40
0.09
  9
$DIMJUST
 70
     0
  9
$DIMSD1
 70
     0
  9
$DIMSD2
 70
     0
  9
$DIMTOLJ
 70
     1
  9
$DIMTZIN
 70
     0
  9
$DIMALTZ
 70
     0
  9
$DIMALTTZ
 70
     0
  9
$DIMFIT
 70
     3
  9
$DIMUPT
 70
     0
  9
$DIMUNIT
 70
     2
  9
$DIMDEC
 70
     2
  9
$DIMTDEC
 70
     2
  9
$DIMALTU
 70
     2
  9
$DIMALTTD
 70
     2
  9
$DIMTXSTY
  7
STANDARD
  9
$DIMAUNIT
 70
     0
  9
$LUNITS
 70
     2
  9
$LUPREC
 70
     4
  9
$SKETCHINC
 40
0.1
  9
$FILLETRAD
 40
0.5
  9
$AUNITS
 70
     0
  9
$AUPREC
 70
     0
  9
$MENU
  1
.
  9
$ELEVATION
 40
0.0
  9
$PELEVATION
 40
0.0
  9
$THICKNESS
 40
0.0
  9
$LIMCHECK
 70
     0
  9
$BLIPMODE
 70
     0
  9
$CHAMFERA
 40
0.5
  9
$CHAMFERB
 40
0.5
  9
$CHAMFERC
 40
1.0
  9
$CHAMFERD
 40
0.0
  9
$SKPOLY
 70
     0
  9
$TDCREATE
 40
2452178.456102546
  9
$TDUPDATE
 40
2452646.418473727
  9
$TDINDWG
 40
0.0021327546
  9
$TDUSRTIMER
 40
0.0021327546
  9
$USRTIMER
 70
     1
  9
$ANGBASE
 50
0.0
  9
$ANGDIR
 70
     0
  9
$PDMODE
 70
     0
  9
$PDSIZE
 40
0.0
  9
$PLINEWID
 40
0.0
  9
$COORDS
 70
     1
  9
$SPLFRAME
 70
     0
  9
$SPLINETYPE
 70
     6
  9
$SPLINESEGS
 70
     8
  9
$ATTDIA
 70
     1
  9
$ATTREQ
 70
     1
  9
$HANDLING
 70
-16383
  9
$HANDSEED
  5
22E
  9
$SURFTAB1
 70
     6
  9
$SURFTAB2
 70
     6
  9
$SURFTYPE
 70
     6
  9
$SURFU
 70
     6
  9
$SURFV
 70
     6
  9
$UCSNAME
  2

  9
$UCSORG
 10
0.0
 20
0.0
 30
0.0
  9
$UCSXDIR
 10
1.0
 20
0.0
 30
0.0
  9
$UCSYDIR
 10
0.0
 20
1.0
 30
0.0
  9
$PUCSNAME
  2

  9
$PUCSORG
 10
0.0
 20
0.0
 30
0.0
  9
$PUCSXDIR
 10
1.0
 20
0.0
 30
0.0
  9
$PUCSYDIR
 10
0.0
 20
1.0
 30
0.0
  9
$USERI1
 70
     0
  9
$USERI2
 70
     0
  9
$USERI3
 70
     0
  9
$USERI4
 70
     0
  9
$USERI5
 70
     0
  9
$USERR1
 40
0.0
  9
$USERR2
 40
0.0
  9
$USERR3
 40
0.0
  9
$USERR4
 40
0.0
  9
$USERR5
 40
0.0
  9
$WORLDVIEW
 70
     1
  9
$SHADEDGE
 70
     3
  9
$SHADEDIF
 70
    70
  9
$TILEMODE
 70
     1
  9
$MAXACTVP
 70
    64
  9
$PINSBASE
 10
0.0
 20
0.0
 30
0.0
  9
$PLIMCHECK
 70
     0
  9
$PEXTMIN
 10
1.000000000000000E+20
 20
1.000000000000000E+20
 30
1.000000000000000E+20
  9
$PEXTMAX
 10
-1.000000000000000E+20
 20
-1.000000000000000E+20
 30
-1.000000000000000E+20
  9
$PLIMMIN
 10
0.0
 20
0.0
  9
$PLIMMAX
 10
12.0
 20
9.0
  9
$UNITMODE
 70
     0
  9
$VISRETAIN
 70
     1
  9
$PLINEGEN
 70
     0
  9
$PSLTSCALE
 70
     1
  9
$TREEDEPTH
 70
  3020
  9
$PICKSTYLE
 70
     1
  9
$CMLSTYLE
  2
STANDARD
  9
$CMLJUST
 70
     0
  9
$CMLSCALE
 40
1.0
  9
$PROXYGRAPHICS
 70
     1
  9
$MEASUREMENT
 70
     0
  0
ENDSEC
  0
SECTION
  2
CLASSES
  0
CLASS
  1
ACDBDICTIONARYWDFLT
  2
AcDbDictionaryWithDefault
  3
AutoCAD 2000
 90
        0
280
     0
281
     0
  0
CLASS
  1
ACDBPLACEHOLDER
  2
AcDbPlaceHolder
  3
AutoCAD 2000
 90
        0
280
     0
281
     0
  0
CLASS
  1
LAYOUT
  2
AcDbLayout
  3
AutoCAD 2000
 90
        0
280
     0
281
     0
  0
CLASS
  1
LONG_TRANSACTION
  2
AcDbLongTransaction
  3
AutoCAD 2000
 90
        0
280
     0
281
     0
  0
CLASS
  1
LWPOLYLINE
  2
AcDbPolyline
  3
AutoCAD 2000
 90
        0
280
     0
281
     1
  0
CLASS
  1
HATCH
  2
AcDbHatch
  3
AutoCAD 2000
 90
        0
280
     0
281
     1
  0
CLASS
  1
XRECORD
  2
AcDbXrecord
  3
AutoCAD 2000
 90
        0
280
     0
281
     0
  0
ENDSEC
  0
SECTION
  2
TABLES
  0
TABLE
  2
VPORT
  5
8
330
0
100
AcDbSymbolTable
 70
     3
  0
VPORT
  5
207
330
8
100
AcDbSymbolTableRecord
100
AcDbViewportTableRecord
  2
*ACTIVE
 70
     0
 10
0.0
 20
0.0
 11
1.0
 21
1.0
 12
6.243744684868374
 22
6.233963227726782
 13
0.0
 23
0.0
 14
0.5
 24
0.5
 15
0.5
 25
0.5
 16
0.0
 26
0.0
 36
1.0
 17
0.0
 27
0.0
 37
0.0
 40
7.871363023137444
 41
1.462515883100381
 42
50.0
 43
0.0
 44
0.0
 50
0.0
 51
0.0
 71
     0
 72
   100
 73
     1
 74
     3
 75
     0
 76
     0
 77
     0
 78
     0
  0
ENDTAB
  0
TABLE
  2
LTYPE
  5
5
330
0
100
AcDbSymbolTable
 70
     1
  0
LTYPE
  5
14
330
5
100
AcDbSymbolTableRecord
100
AcDbLinetypeTableRecord
  2
BYBLOCK
 70
     0
  3

 72
    65
 73
     0
 40
0.0
  0
LTYPE
  5
15
330
5
100
AcDbSymbolTableRecord
100
AcDbLinetypeTableRecord
  2
BYLAYER
 70
     0
  3

 72
    65
 73
     0
 40
0.0
  0
LTYPE
  5
16
330
5
100
AcDbSymbolTableRecord
100
AcDbLinetypeTableRecord
  2
CONTINUOUS
 70
     0
  3
Solid line
 72
    65
 73
     0
 40
0.0
  0
ENDTAB
  0
TABLE
  2
LAYER
  5
2
330
0
100
AcDbSymbolTable
 70
     4
  0
LAYER
  5
10
330
2
100
AcDbSymbolTableRecord
100
AcDbLayerTableRecord
  2
0
 70
     0
 62
     7
  6
CONTINUOUS
  0
LAYER
  5
34
330
2
100
AcDbSymbolTableRecord
100
AcDbLayerTableRecord
  2
L
 70
     0
 62
     7
  6
CONTINUOUS
  0
LAYER
  5
45
330
2
100
AcDbSymbolTableRecord
100
AcDbLayerTableRecord
  2
DEFPOINTS
 70
     0
 62
     7
  6
CONTINUOUS
  0
LAYER
  5
88
330
2
100
AcDbSymbolTableRecord
100
AcDbLayerTableRecord
  2
TX
 70
     0
 62
   150
  6
CONTINUOUS
  0
ENDTAB
  0
TABLE
  2
STYLE
  5
3
330
0
100
AcDbSymbolTable
 70
     3
  0
STYLE
  5
11
330
3
100
AcDbSymbolTableRecord
100
AcDbTextStyleTableRecord
  2
STANDARD
 70
     0
 40
0.0
 41
1.0
 50
0.0
 71
     0
 42
0.2
  3
txt
  4

  0
STYLE
  5
35
330
3
100
AcDbSymbolTableRecord
100
AcDbTextStyleTableRecord
  2
REG
 70
     0
 40
0.0
 41
1.0
 50
0.0
 71
     0
 42
0.09375
  3
E:\R13\com\fonts\ARCHITXT.SHX
  4

  0
STYLE
  5
36
330
3
100
AcDbSymbolTableRecord
100
AcDbTextStyleTableRecord
  2
DIMTXT
 70
     0
 40
0.0
 41
1.0
 50
0.0
 71
     0
 42
1.125
  3
archt.shx
  4

  0
ENDTAB
  0
TABLE
  2
VIEW
  5
6
330
0
100
AcDbSymbolTable
 70
     0
  0
ENDTAB
  0
TABLE
  2
UCS
  5
7
330
0
100
AcDbSymbolTable
 70
     0
  0
ENDTAB
  0
TABLE
  2
APPID
  5
9
330
0
100
AcDbSymbolTable
 70
     1
  0
APPID
  5
12
330
9
100
AcDbSymbolTableRecord
100
AcDbRegAppTableRecord
  2
ACAD
 70
     0
  0
ENDTAB
  0
TABLE
  2
DIMSTYLE
  5
A
330
0
100
AcDbSymbolTable
 70
     6
  0
DIMSTYLE
105
27
102
{ACAD_REACTORS
330
C1
330
CF
102
}
330
A
100
AcDbSymbolTableRecord
100
AcDbDimStyleTableRecord
  2
STANDARD
 70
     0
  3

  4

  5

  6

  7

 40
1.0
 41
0.18
 42
0.0625
 43
0.38
 44
0.18
 45
0.0
 46
0.0
 47
0.0
 48
0.0
140
0.18
141
0.09
142
0.0
143
25.4
144
1.0
145
0.0
146
1.0
147
0.09
 71
     0
 72
     0
 73
     1
 74
     1
 75
     0
 76
     0
 77
     0
 78
     0
170
     0
171
     2
172
     0
173
     0
174
     0
175
     0
176
     0
177
     0
178
     0
270
     2
271
     2
272
     2
273
     2
274
     2
340
11
275
     0
280
     0
281
     0
282
     0
283
     1
284
     0
285
     0
286
     0
287
     3
288
     0
  0
DIMSTYLE
105
37
330
A
100
AcDbSymbolTableRecord
100
AcDbDimStyleTableRecord
  2
1
 70
     0
  3

  4

  5

  6

  7

 40
1.0
 41
1.125
 42
0.5
 43
0.375
 44
1.19921875
 45
0.0
 46
0.5
 47
0.0
 48
0.0
140
1.125
141
0.125
142
0.0
143
25.4
144
1.0
145
0.0
146
0.8
147
0.5625
 71
     0
 72
     0
 73
     0
 74
     0
 75
     0
 76
     0
 77
     1
 78
     3
170
     0
171
     2
172
     1
173
     0
174
     1
175
     0
176
   133
177
   133
178
   150
270
     2
271
     3
272
     3
273
     2
274
     2
340
36
275
     0
280
     0
281
     0
282
     0
283
     1
284
     0
285
     0
286
     0
287
     4
288
     0
  0
DIMSTYLE
105
38
330
A
100
AcDbSymbolTableRecord
100
AcDbDimStyleTableRecord
  2
1$2
 70
     0
  3

  4

  5
DOTSMALL
  6

  7

 40
1.0
 41
1.5
 42
0.5
 43
0.375
 44
1.19921875
 45
0.0
 46
0.5
 47
0.0
 48
0.0
140
0.75
141
0.125
142
0.0
143
25.4
144
1.0
145
0.0
146
0.8
147
0.5625
 71
     0
 72
     0
 73
     0
 74
     0
 75
     0
 76
     0
 77
     1
 78
     3
170
     0
171
     2
172
     1
173
     0
174
     1
175
     0
176
   133
177
   133
178
   150
270
     2
271
     3
272
     3
273
     2
274
     2
340
36
275
     0
280
     0
281
     0
282
     0
283
     1
284
     0
285
     0
286
     0
287
     4
288
     0
  0
DIMSTYLE
105
39
330
A
100
AcDbSymbolTableRecord
100
AcDbDimStyleTableRecord
  2
1$4
 70
     0
  3

  4

  5

  6

  7
DOTSMALL
 40
1.0
 41
1.5
 42
0.5
 43
0.375
 44
1.19921875
 45
0.0
 46
0.5
 47
0.0
 48
0.0
140
0.75
141
0.125
142
0.0
143
25.4
144
1.0
145
0.0
146
0.8
147
0.5625
 71
     0
 72
     0
 73
     0
 74
     0
 75
     0
 76
     0
 77
     1
 78
     3
170
     0
171
     2
172
     1
173
     1
174
     1
175
     0
176
   133
177
   133
178
   150
270
     2
271
     3
272
     3
273
     2
274
     2
340
36
275
     0
280
     0
281
     0
282
     0
283
     1
284
     0
285
     0
286
     0
287
     4
288
     0
  0
DIMSTYLE
105
3A
330
A
100
AcDbSymbolTableRecord
100
AcDbDimStyleTableRecord
  2
1$3
 70
     0
  3

  4

  5
DOTSMALL
  6

  7

 40
1.0
 41
1.5
 42
0.5
 43
0.375
 44
1.19921875
 45
0.0
 46
0.5
 47
0.0
 48
0.0
140
0.75
141
0.125
142
0.0
143
25.4
144
1.0
145
0.0
146
0.8
147
0.5625
 71
     0
 72
     0
 73
     0
 74
     0
 75
     0
 76
     0
 77
     1
 78
     3
170
     0
171
     2
172
     1
173
     0
174
     1
175
     0
176
   133
177
   133
178
   150
270
     2
271
     3
272
     3
273
     2
274
     2
340
36
275
     0
280
     0
281
     0
282
     0
283
     1
284
     0
285
     0
286
     0
287
     4
288
     0
  0
DIMSTYLE
105
3B
330
A
100
AcDbSymbolTableRecord
100
AcDbDimStyleTableRecord
  2
1$7
 70
     0
  3

  4

  5

  6

  7

 40
1.0
 41
1.0
 42
0.5
 43
0.375
 44
1.19921875
 45
0.0
 46
0.5
 47
0.0
 48
0.0
140
0.75
141
0.125
142
0.0
143
25.4
144
1.0
145
0.0
146
0.8
147
0.5625
 71
     0
 72
     0
 73
     0
 74
     0
 75
     0
 76
     0
 77
     1
 78
     3
170
     0
171
     2
172
     1
173
     0
174
     1
175
     0
176
   133
177
   133
178
   150
270
     2
271
     3
272
     3
273
     2
274
     2
340
36
275
     0
280
     0
281
     0
282
     0
283
     1
284
     0
285
     0
286
     0
287
     4
288
     0
  0
ENDTAB
  0
TABLE
  2
BLOCK_RECORD
  5
1
330
0
100
AcDbSymbolTable
 70
     5
  0
BLOCK_RECORD
  5
1F
102
{ACAD_XDICTIONARY
360
22A
102
}
330
1
100
AcDbSymbolTableRecord
100
AcDbBlockTableRecord
  2
*MODEL_SPACE
  0
BLOCK_RECORD
  5
1B
102
{ACAD_XDICTIONARY
360
228
102
}
330
1
100
AcDbSymbolTableRecord
100
AcDbBlockTableRecord
  2
*PAPER_SPACE
  0
BLOCK_RECORD
  5
2B
330
1
100
AcDbSymbolTableRecord
100
AcDbBlockTableRecord
  2
_DOT
  0
BLOCK_RECORD
  5
30
330
1
100
AcDbSymbolTableRecord
100
AcDbBlockTableRecord
  2
_DOTSMALL
  0
BLOCK_RECORD
  5
C2
330
1
100
AcDbSymbolTableRecord
100
AcDbBlockTableRecord
  2
*D3
  0
BLOCK_RECORD
  5
D0
330
1
100
AcDbSymbolTableRecord
100
AcDbBlockTableRecord
  2
*D4
  0
ENDTAB
  0
ENDSEC
  0
SECTION
  2
BLOCKS
  0
BLOCK
  5
20
330
1F
100
AcDbEntity
  8
0
100
AcDbBlockBegin
  2
*MODEL_SPACE
 70
     0
 10
0.0
 20
0.0
 30
0.0
  3
*MODEL_SPACE
  1

  0
ENDBLK
  5
21
330
1F
100
AcDbEntity
  8
0
100
AcDbBlockEnd
  0
BLOCK
  5
1C
330
1B
100
AcDbEntity
 67
     1
  8
0
100
AcDbBlockBegin
  2
*PAPER_SPACE
 70
     0
 10
0.0
 20
0.0
 30
0.0
  3
*PAPER_SPACE
  1

  0
ENDBLK
  5
1D
330
1B
100
AcDbEntity
 67
     1
  8
0
100
AcDbBlockEnd
  0
BLOCK
  5
2E
330
2B
100
AcDbEntity
  8
0
100
AcDbBlockBegin
  2
_DOT
 70
     0
 10
0.0
 20
0.0
 30
0.0
  3
_DOT
  1

  0
LWPOLYLINE
  5
2C
330
2B
100
AcDbEntity
  8
L
 62
     0
100
AcDbPolyline
 90
        2
 70
     1
 43
0.5
 10
-0.25
 20
0.0
 42
1.0
 10
0.25
 20
0.0
 42
1.0
  0
LINE
  5
2D
330
2B
100
AcDbEntity
  8
L
 62
     0
100
AcDbLine
 10
-0.5
 20
0.0
 30
0.0
 11
-1.0
 21
0.0
 31
0.0
  0
ENDBLK
  5
2F
330
2B
100
AcDbEntity
  8
0
100
AcDbBlockEnd
  0
BLOCK
  5
32
330
30
100
AcDbEntity
  8
0
 48
0.116666
100
AcDbBlockBegin
  2
_DOTSMALL
 70
     0
 10
0.0
 20
0.0
 30
0.0
  3
_DOTSMALL
  1

  0
LWPOLYLINE
  5
31
330
30
100
AcDbEntity
  8
0
  6
BYBLOCK
 62
     0
100
AcDbPolyline
 90
        2
 70
     1
 43
0.5
 10
-0.0625
 20
0.0
 42
1.0
 10
0.0625
 20
0.0
 42
1.0
  0
ENDBLK
  5
33
330
30
100
AcDbEntity
  8
0
 48
0.116666
100
AcDbBlockEnd
  0
BLOCK
  5
CD
330
C2
100
AcDbEntity
  8
0
100
AcDbBlockBegin
  2
*D3
 70
     1
 10
0.0
 20
0.0
 30
0.0
  3
*D3
  1

  0
LINE
  5
C3
330
C2
100
AcDbEntity
  8
0
 62
     0
100
AcDbLine
 10
5.98630808193231
 20
9.134378263250034
 30
0.0
 11
1.698470635923144
 21
9.134378263250036
 31
0.0
  0
LINE
  5
C4
330
C2
100
AcDbEntity
  8
0
 62
     0
100
AcDbLine
 10
2.50232746140411
 20
4.009065962257778
 30
0.0
 11
1.698470635923143
 21
4.009065962257779
 31
0.0
  0
LINE
  5
C5
330
C2
100
AcDbEntity
  8
0
 62
     0
100
AcDbLine
 10
1.878470635923144
 20
8.954378263250037
 30
0.0
 11
1.878470635923143
 21
6.751722112753908
 31
0.0
  0
LINE
  5
C6
330
C2
100
AcDbEntity
  8
0
 62
     0
100
AcDbLine
 10
1.878470635923143
 20
4.189065962257779
 30
0.0
 11
1.878470635923143
 21
6.391722112753909
 31
0.0
  0
SOLID
  5
C7
330
C2
100
AcDbEntity
  8
0
 62
     0
100
AcDbTrace
 10
1.848470635923144
 20
8.954378263250037
 30
0.0
 11
1.908470635923144
 21
8.954378263250037
 31
0.0
 12
1.878470635923144
 22
9.134378263250036
 32
0.0
 13
1.878470635923144
 23
9.134378263250036
 33
0.0
  0
SOLID
  5
C8
330
C2
100
AcDbEntity
  8
0
 62
     0
100
AcDbTrace
 10
1.848470635923143
 20
4.189065962257779
 30
0.0
 11
1.908470635923143
 21
4.189065962257779
 31
0.0
 12
1.878470635923143
 22
4.009065962257779
 32
0.0
 13
1.878470635923143
 23
4.009065962257779
 33
0.0
  0
MTEXT
  5
C9
330
C2
100
AcDbEntity
  8
0
 62
     0
100
AcDbMText
 10
1.878470635923142
 20
6.571722112753908
 30
0.0
 40
0.18
 41
0.0
 71
     5
 72
     1
  1
\A1;5.13
1001
ACAD
1000
MTEXTBEGIN
1070
    73
1070
     1
1070
    44
1040
1.0
1070
    74
1070
     0
1000
MTEXTEND
  0
POINT
  5
CA
330
C2
100
AcDbEntity
  8
DEFPOINTS
 62
     0
100
AcDbPoint
 10
6.04880808193231
 20
9.134378263250034
 30
0.0
  0
POINT
  5
CB
330
C2
100
AcDbEntity
  8
DEFPOINTS
 62
     0
100
AcDbPoint
 10
2.56482746140411
 20
4.009065962257778
 30
0.0
  0
POINT
  5
CC
330
C2
100
AcDbEntity
  8
DEFPOINTS
 62
     0
100
AcDbPoint
 10
1.878470635923143
 20
4.009065962257779
 30
0.0
  0
ENDBLK
  5
CE
330
C2
100
AcDbEntity
  8
0
100
AcDbBlockEnd
  0
BLOCK
  5
DB
330
D0
100
AcDbEntity
  8
0
100
AcDbBlockBegin
  2
*D4
 70
     1
 10
0.0
 20
0.0
 30
0.0
  3
*D4
  1

  0
LINE
  5
FB
330
D0
100
AcDbEntity
  8
0
 62
     0
100
AcDbLine
 10
2.533828522528321
 20
4.102822455072073
 30
0.0
 11
2.533828522528321
 21
9.815223890383904
 31
0.0
  0
LINE
  5
FC
330
D0
100
AcDbEntity
  8
0
 62
     0
100
AcDbLine
 10
9.563761666142333
 20
4.101271543175111
 30
0.0
 11
9.563761666142333
 21
9.815223890383904
 31
0.0
  0
LINE
  5
FD
330
D0
100
AcDbEntity
  8
0
 62
     0
100
AcDbLine
 10
2.713828522528321
 20
9.635223890383905
 30
0.0
 11
5.703795094335328
 21
9.635223890383905
 31
0.0
  0
LINE
  5
FE
330
D0
100
AcDbEntity
  8
0
 62
     0
100
AcDbLine
 10
9.383761666142333
 20
9.635223890383905
 30
0.0
 11
6.393795094335327
 21
9.635223890383905
 31
0.0
  0
SOLID
  5
FF
330
D0
100
AcDbEntity
  8
0
 62
     0
100
AcDbTrace
 10
2.713828522528321
 20
9.665223890383904
 30
0.0
 11
2.713828522528321
 21
9.605223890383905
 31
0.0
 12
2.533828522528321
 22
9.635223890383905
 32
0.0
 13
2.533828522528321
 23
9.635223890383905
 33
0.0
  0
SOLID
  5
100
330
D0
100
AcDbEntity
  8
0
 62
     0
100
AcDbTrace
 10
9.383761666142333
 20
9.665223890383904
 30
0.0
 11
9.383761666142333
 21
9.605223890383905
 31
0.0
 12
9.563761666142333
 22
9.635223890383905
 32
0.0
 13
9.563761666142333
 23
9.635223890383905
 33
0.0
  0
MTEXT
  5
101
330
D0
100
AcDbEntity
  8
0
 62
     0
100
AcDbMText
 10
6.048795094335328
 20
9.635223890383905
 30
0.0
 40
0.18
 41
0.0
 71
     5
 72
     1
  1
\A1;7.03
1001
ACAD
1000
MTEXTBEGIN
1070
    73
1070
     1
1070
    44
1040
1.0
1070
    74
1070
     0
1000
MTEXTEND
  0
POINT
  5
102
330
D0
100
AcDbEntity
  8
DEFPOINTS
 62
     0
100
AcDbPoint
 10
2.533828522528321
 20
4.040322455072073
 30
0.0
  0
POINT
  5
103
330
D0
100
AcDbEntity
  8
DEFPOINTS
 62
     0
100
AcDbPoint
 10
9.563761666142333
 20
4.038771543175111
 30
0.0
  0
POINT
  5
104
330
D0
100
AcDbEntity
  8
DEFPOINTS
 62
     0
100
AcDbPoint
 10
9.563761666142333
 20
9.635223890383905
 30
0.0
  0
ENDBLK
  5
DC
330
D0
100
AcDbEntity
  8
0
100
AcDbBlockEnd
  0
ENDSEC
  0
SECTION
  2
ENTITIES
  0
LWPOLYLINE
  5
BD
330
1F
100
AcDbEntity
  8
L
 62
     5
 48
0.233332
100
AcDbPolyline
 90
        2
 70
     0
 43
0.028125
 10
3.620018495470123
 20
3.154958162326229
 10
8.364101469608005
 20
3.154958162326229
  0
TEXT
  5
BE
330
1F
100
AcDbEntity
  8
L
 62
     3
 48
0.233332
100
AcDbText
 10
3.713754338151108
 20
3.248694005007271
 30
0.0
 40
0.140625
  1
SERIES 7 - 7" TRIANGULAR POST #1530
  7
REG
100
AcDbText
  0
TEXT
  5
BF
330
1F
100
AcDbEntity
  8
TX
 48
0.233332
100
AcDbText
 10
3.713754338151108
 20
2.967472319645187
 30
0.0
 40
0.09375
  1
SCALE : FULL SIZE
  7
REG
 11
3.713754338151108
 21
3.061222319645187
 31
0.0
100
AcDbText
 73
     3
  0
DIMENSION
  5
C1
330
1F
100
AcDbEntity
  8
0
100
AcDbDimension
  2
*D3
 10
1.878470635923143
 20
4.009065962257779
 30
0.0
 11
1.878470635923142
 21
6.571722112753908
 31
0.0
 70
    32
  3
STANDARD
100
AcDbAlignedDimension
 13
6.04880808193231
 23
9.134378263250034
 33
0.0
 14
2.56482746140411
 24
4.009065962257778
 34
0.0
 50
90.0
100
AcDbRotatedDimension
  0
DIMENSION
  5
CF
330
1F
100
AcDbEntity
  8
0
100
AcDbDimension
  2
*D4
 10
9.563761666142333
 20
9.635223890383905
 30
0.0
 11
6.048795094335328
 21
9.635223890383905
 31
0.0
 70
    32
  3
STANDARD
100
AcDbAlignedDimension
 13
2.533828522528321
 23
4.040322455072073
 33
0.0
 14
9.563761666142333
 24
4.038771543175111
 34
0.0
100
AcDbRotatedDimension
  0
LWPOLYLINE
  5
19D
330
1F
100
AcDbEntity
  8
L
 62
     5
100
AcDbPolyline
 90
       35
 70
     1
 43
0.0
 10
3.712383465745705
 20
5.133304753787257
 10
3.776573944762067
 20
5.145000131859344
 42
-0.2136503087798194
 10
3.813878940838341
 20
5.135841303347805
 10
3.813878940838339
 20
5.135841303347802
 42
2.046398478149123
 10
3.813878940838339
 20
5.258915223152285
 10
3.813878940838293
 20
5.258915223152345
 42
-0.5816663505014076
 10
3.738366437444551
 20
5.290126193737598
 10
3.738366437444643
 20
5.290126193737609
 42
0.6891804942060265
 10
3.567663343185314
 20
5.331672586437505
 10
3.567663343185376
 20
5.331672586437463
 10
2.878376080140714
 20
4.329922847266203
 10
2.878376080140739
 20
4.329922847266186
 42
0.6040196880952894
 10
2.981353271046845
 20
4.134065962257748
 10
2.981353271046845
 20
4.134065962257778
 10
3.861808081932185
 20
4.134065962257778
 10
3.861808081932185
 20
4.134065962257835
 42
0.4142135623736325
 10
3.92380808193214
 20
4.196065962257904
 10
3.923808081932083
 20
4.196065962257904
 10
3.923808081932083
 20
4.197065962257653
 42
0.4142135623741692
 10
3.861808081932185
 20
4.259065962257778
 10
3.861808081932185
 20
4.259065962257665
 10
3.798808081931628
 20
4.259065962257665
 42
-0.4142135623733615
 10
3.673808081931628
 20
4.384065962257778
 10
3.673808081931856
 20
4.509065962258119
 42
-0.4142135623725622
 10
3.798808081931856
 20
4.634065962257892
 10
3.861808081932185
 20
4.634065962257892
 42
0.4142135623730951
 10
3.923808081932083
 20
4.69606596225779
 10
3.92380808193231
 20
4.69706596225788
 42
0.4142135623741692
 10
3.861808081932412
 20
4.759065962258006
 10
3.861808081932412
 20
4.759065962257892
 10
3.798808081932083
 20
4.759065962257892
 42
-0.4142135623730951
 10
3.673808081932083
 20
4.884065962257892
 10
3.673808081932083
 20
5.087065962257753
 10
3.673808081932111
 20
5.087065962257753
 42
-0.3623606221869058
 10
3.712383465745701
 20
5.133304753787284
  0
LWPOLYLINE
  5
1AA
330
1F
100
AcDbEntity
  8
L
 62
     5
100
AcDbPolyline
 90
       12
 70
     1
 43
0.0
 10
3.954517941743706
 20
5.634065962257966
 42
-0.6040196880950925
 10
3.877079094182381
 20
5.781350339784154
 10
5.827222332862532
 20
8.615517726057401
 42
-0.5321867045111165
 10
5.905187041111974
 20
8.614736852940637
 42
0.0197698949263166
 10
5.913111195994173
 20
8.603688362376079
 42
1.0
 10
5.987271122030025
 20
8.661449122155994
 42
-2.046398478149955
 10
6.110345041834495
 20
8.661449122156009
 42
0.9999999999994678
 10
6.184504967870015
 20
8.603688362376061
 42
0.0197698949259892
 10
6.192429122966573
 20
8.614736852799119
 42
-0.5321867045117012
 10
6.270393831001701
 20
8.61551772605722
 10
8.220537069681819
 20
5.781350339784177
 42
-0.6040196880954322
 10
8.14309822212046
 20
5.634065962257778
  0
LWPOLYLINE
  5
1CE
330
1F
100
AcDbEntity
  8
L
 62
     5
100
AcDbPolyline
 90
       34
 70
     1
 43
0.0
 10
8.283737223025827
 20
5.135841303347802
 42
-2.046398478149123
 10
8.283737223025827
 20
5.258915223152285
 10
8.283737223025873
 20
5.258915223152345
 42
0.5816663505014076
 10
8.359249726419614
 20
5.290126193737598
 10
8.359249726419523
 20
5.290126193737609
 42
-0.6891804942060265
 10
8.529952820678852
 20
5.331672586437505
 10
8.52995282067879
 20
5.331672586437463
 10
9.219240083723452
 20
4.329922847266203
 10
9.219240083723427
 20
4.329922847266186
 42
-0.6040196880952894
 10
9.116262892817321
 20
4.134065962257748
 10
9.116262892817321
 20
4.134065962257778
 10
8.235808081931981
 20
4.134065962257778
 10
8.235808081931981
 20
4.134065962257835
 42
-0.4142135623736322
 10
8.173808081932026
 20
4.196065962257904
 10
8.173808081932083
 20
4.196065962257904
 10
8.173808081932083
 20
4.197065962257653
 42
-0.4142135623741692
 10
8.235808081931981
 20
4.259065962257778
 10
8.235808081931981
 20
4.259065962257665
 10
8.298808081932538
 20
4.259065962257665
 42
0.4142135623733615
 10
8.423808081932538
 20
4.384065962257778
 10
8.42380808193231
 20
4.509065962258119
 42
0.4142135623725622
 10
8.29880808193231
 20
4.634065962257892
 10
8.235808081931981
 20
4.634065962257892
 42
-0.4142135623730951
 10
8.173808081932083
 20
4.69606596225779
 10
8.173808081931856
 20
4.69706596225788
 42
-0.4142135623736322
 10
8.235808081931754
 20
4.759065962257892
 10
8.298808081932083
 20
4.759065962257892
 42
0.4142135623730951
 10
8.423808081932083
 20
4.884065962257892
 10
8.423808081932083
 20
5.087065962257753
 10
8.423808081932055
 20
5.087065962257753
 42
0.362360622186906
 10
8.385232698118466
 20
5.133304753787284
 10
8.385232698118461
 20
5.133304753787257
 10
8.3210422191021
 20
5.145000131859347
 10
8.3210422191021
 20
5.145000131859344
 42
0.2136503087798193
  0
LWPOLYLINE
  5
1D6
330
1F
100
AcDbEntity
  8
L
 62
     5
100
AcDbPolyline
 90
       61
 70
     1
 43
0.0
 10
8.29880808193231
 20
5.447065962257994
 10
8.298808081932083
 20
5.384065962257778
 10
8.079808081932032
 20
5.384065962257778
 42
0.4142135623730951
 10
8.048808081932083
 20
5.353065962257829
 10
8.048808081932083
 20
5.040065962257841
 42
0.4142135623730951
 10
8.079808081932032
 20
5.009065962257892
 10
8.236808081932185
 20
5.009065962257778
 10
8.236808081932185
 20
5.009065962257722
 42
-0.4142135623730951
 10
8.29880808193214
 20
4.947065962257767
 10
8.298808081932083
 20
4.947065962257767
 10
8.298808081932083
 20
4.884065962257778
 10
8.079808081932032
 20
4.884065962257778
 42
0.4142135623730951
 10
8.048808081932083
 20
4.853065962257829
 10
8.048808081932083
 20
4.540065962257727
 42
0.4142135623730951
 10
8.079808081932032
 20
4.509065962257778
 10
8.236808081932185
 20
4.509065962257778
 10
8.236808081932185
 20
4.509065962257722
 42
-0.4142135623730951
 10
8.29880808193214
 20
4.447065962257767
 10
8.298808081932083
 20
4.447065962257767
 10
8.298808081932083
 20
4.384065962257778
 10
8.079808081932032
 20
4.384065962257778
 42
0.4142135623730951
 10
8.048808081932083
 20
4.353065962257829
 10
8.04880808193231
 20
4.040065962257727
 42
0.4142135623730951
 10
8.079808081932259
 20
4.009065962257778
 10
9.532788702460283
 20
4.009065962257778
 10
9.532788702460283
 20
4.009065962257777
 42
0.6040196880987761
 10
9.558327045805128
 20
4.057638469739854
 10
9.558327045805089
 20
4.057638469739828
 10
6.074346425277116
 20
9.120950770732093
 42
0.5257777427709608
 10
6.023269738587504
 20
9.120950770732093
 10
2.539289118059304
 20
4.057638469739828
 10
2.539289118059444
 20
4.057638469739732
 42
0.6040196880899026
 10
2.56482746140411
 20
4.009065962257796
 10
2.56482746140411
 20
4.009065962257778
 10
4.017808081931907
 20
4.009065962257778
 42
0.4142135623730951
 10
4.048808081931856
 20
4.040065962257727
 10
4.048808081932083
 20
4.353065962257829
 42
0.4142135623730951
 10
4.017808081932134
 20
4.384065962257778
 10
3.798808081932083
 20
4.384065962257778
 10
3.798808081932083
 20
4.447065962257767
 10
3.798808081932026
 20
4.447065962257767
 42
-0.4142135623730951
 10
3.860808081931981
 20
4.509065962257722
 10
3.860808081931981
 20
4.509065962257778
 10
4.017808081932134
 20
4.509065962257778
 42
0.4142135623730951
 10
4.048808081932083
 20
4.540065962257727
 10
4.048808081932083
 20
4.853065962257829
 42
0.4142135623730951
 10
4.017808081932134
 20
4.884065962257778
 10
3.798808081932083
 20
4.884065962257778
 10
3.798808081932083
 20
4.947065962257767
 10
3.798808081932026
 20
4.947065962257767
 42
-0.4142135623730951
 10
3.860808081931981
 20
5.009065962257722
 10
3.860808081931981
 20
5.009065962257778
 10
4.017808081932134
 20
5.009065962257892
 42
0.4142135623730951
 10
4.048808081932083
 20
5.040065962257841
 10
4.048808081932083
 20
5.353065962257829
 42
0.4142135623730951
 10
4.017808081932134
 20
5.384065962257778
 10
3.798808081932083
 20
5.384065962257778
 10
3.798808081931856
 20
5.447065962257994
 42
-0.4142135623730951
 10
3.860808081931754
 20
5.509065962257892
 10
8.236808081932412
 20
5.509065962258006
 10
8.236808081932412
 20
5.509065962257949
 42
-0.4142135623736322
  0
ENDSEC
  0
SECTION
  2
OBJECTS
  0
DICTIONARY
  5
C
330
0
100
AcDbDictionary
  3
ACAD_GROUP
350
D
  3
ACAD_LAYOUT
350
1A
  3
ACAD_MLINESTYLE
350
17
  3
ACAD_PLOTSETTINGS
350
19
  3
ACAD_PLOTSTYLENAME
350
E
  3
ACDBHEADERROUNDTRIPXREC
350
208
  0
DICTIONARY
  5
22A
330
1F
100
AcDbDictionary
280
     1
  3
ACAD_LAYOUTSELFREF
360
22B
  0
DICTIONARY
  5
228
330
1B
100
AcDbDictionary
280
     1
  3
ACAD_LAYOUTSELFREF
360
229
  0
DICTIONARY
  5
D
102
{ACAD_REACTORS
330
C
102
}
330
C
100
AcDbDictionary
  0
DICTIONARY
  5
1A
102
{ACAD_REACTORS
330
C
102
}
330
C
100
AcDbDictionary
  0
DICTIONARY
  5
17
102
{ACAD_REACTORS
330
C
102
}
330
C
100
AcDbDictionary
  3
STANDARD
350
18
  0
DICTIONARY
  5
19
102
{ACAD_REACTORS
330
C
102
}
330
C
100
AcDbDictionary
  0
ACDBDICTIONARYWDFLT
  5
E
102
{ACAD_REACTORS
330
C
102
}
330
C
100
AcDbDictionary
281
     1
  3
Normal
350
F
100
AcDbDictionaryWithDefault
340
F
  0
DICTIONARY
  5
208
102
{ACAD_REACTORS
330
C
102
}
330
C
100
AcDbDictionary
  3
CEPSNTYPE
350
212
  3
FINGERPRINTGUID
350
213
  3
HYPERLINKBASE
350
20B
  3
INSUNITS
350
211
  3
LAYOUTDICT
350
20D
  3
LWETCUNION
350
210
  3
PLOTSETDICT
350
20E
  3
PLOTSTYLNAMDICT
350
20F
  3
PSVPSCALE
350
215
  3
PUCSBASE
350
218
  3
PUCSORGBACK
350
21E
  3
PUCSORGBOTTOM
350
21A
  3
PUCSORGFRONT
350
21D
  3
PUCSORGLEFT
350
21B
  3
PUCSORGRIGHT
350
21C
  3
PUCSORGTOP
350
219
  3
PUCSORTHOREF
350
216
  3
PUCSORTHOVIEW
350
217
  3
STYLESHEET
350
20C
  3
TSTACKALIGN
350
209
  3
TSTACKSIZE
350
20A
  3
UCSBASE
350
221
  3
UCSORGBACK
350
227
  3
UCSORGBOTTOM
350
223
  3
UCSORGFRONT
350
226
  3
UCSORGLEFT
350
224
  3
UCSORGRIGHT
350
225
  3
UCSORGTOP
350
222
  3
UCSORTHOREF
350
21F
  3
UCSORTHOVIEW
350
220
  3
VERSIONGUID
350
214
  0
XRECORD
  5
22B
102
{ACAD_REACTORS
330
22A
102
}
330
22A
100
AcDbXrecord
340
1F
  0
XRECORD
  5
229
102
{ACAD_REACTORS
330
228
102
}
330
228
100
AcDbXrecord
340
1B
  0
MLINESTYLE
  5
18
102
{ACAD_REACTORS
330
17
102
}
330
17
100
AcDbMlineStyle
  2
STANDARD
 70
     0
  3

 62
   256
 51
90.0
 52
90.0
 71
     2
 49
0.5
 62
   256
  6
BYLAYER
 49
-0.5
 62
   256
  6
BYLAYER
  0
ACDBPLACEHOLDER
  5
F
102
{ACAD_REACTORS
330
E
102
}
330
E
100
AcDbPlaceHolder
280
     0
  0
XRECORD
  5
212
102
{ACAD_REACTORS
330
208
102
}
330
208
100
AcDbXrecord
 90
        0
  0
XRECORD
  5
213
102
{ACAD_REACTORS
330
208
102
}
330
208
100
AcDbXrecord
  1
{DC175E3D-AE85-11D5-9A93-0040C77E826B}
  0
XRECORD
  5
20B
102
{ACAD_REACTORS
330
208
102
}
330
208
100
AcDbXrecord
  1

  0
XRECORD
  5
211
102
{ACAD_REACTORS
330
208
102
}
330
208
100
AcDbXrecord
 90
        1
  0
XRECORD
  5
20D
102
{ACAD_REACTORS
330
208
102
}
330
208
100
AcDbXrecord
340
1A
  0
XRECORD
  5
210
102
{ACAD_REACTORS
330
208
102
}
330
208
100
AcDbXrecord
 90
    10781
  0
XRECORD
  5
20E
102
{ACAD_REACTORS
330
208
102
}
330
208
100
AcDbXrecord
340
19
  0
XRECORD
  5
20F
102
{ACAD_REACTORS
330
208
102
}
330
208
100
AcDbXrecord
340
E
  0
XRECORD
  5
215
102
{ACAD_REACTORS
330
208
102
}
330
208
100
AcDbXrecord
 40
0.0
  0
XRECORD
  5
218
102
{ACAD_REACTORS
330
208
102
}
330
208
100
AcDbXrecord
340
0
  0
XRECORD
  5
21E
102
{ACAD_REACTORS
330
208
102
}
330
208
100
AcDbXrecord
 10
0.0
 20
0.0
 30
0.0
  0
XRECORD
  5
21A
102
{ACAD_REACTORS
330
208
102
}
330
208
100
AcDbXrecord
 10
0.0
 20
0.0
 30
0.0
  0
XRECORD
  5
21D
102
{ACAD_REACTORS
330
208
102
}
330
208
100
AcDbXrecord
 10
0.0
 20
0.0
 30
0.0
  0
XRECORD
  5
21B
102
{ACAD_REACTORS
330
208
102
}
330
208
100
AcDbXrecord
 10
0.0
 20
0.0
 30
0.0
  0
XRECORD
  5
21C
102
{ACAD_REACTORS
330
208
102
}
330
208
100
AcDbXrecord
 10
0.0
 20
0.0
 30
0.0
  0
XRECORD
  5
219
102
{ACAD_REACTORS
330
208
102
}
330
208
100
AcDbXrecord
 10
0.0
 20
0.0
 30
0.0
  0
XRECORD
  5
216
102
{ACAD_REACTORS
330
208
102
}
330
208
100
AcDbXrecord
340
0
  0
XRECORD
  5
217
102
{ACAD_REACTORS
330
208
102
}
330
208
100
AcDbXrecord
 70
     0
  0
XRECORD
  5
20C
102
{ACAD_REACTORS
330
208
102
}
330
208
100
AcDbXrecord
  1

  0
XRECORD
  5
209
102
{ACAD_REACTORS
330
208
102
}
330
208
100
AcDbXrecord
 90
        1
  0
XRECORD
  5
20A
102
{ACAD_REACTORS
330
208
102
}
330
208
100
AcDbXrecord
 90
       70
  0
XRECORD
  5
221
102
{ACAD_REACTORS
330
208
102
}
330
208
100
AcDbXrecord
340
0
  0
XRECORD
  5
227
102
{ACAD_REACTORS
330
208
102
}
330
208
100
AcDbXrecord
 10
0.0
 20
0.0
 30
0.0
  0
XRECORD
  5
223
102
{ACAD_REACTORS
330
208
102
}
330
208
100
AcDbXrecord
 10
0.0
 20
0.0
 30
0.0
  0
XRECORD
  5
226
102
{ACAD_REACTORS
330
208
102
}
330
208
100
AcDbXrecord
 10
0.0
 20
0.0
 30
0.0
  0
XRECORD
  5
224
102
{ACAD_REACTORS
330
208
102
}
330
208
100
AcDbXrecord
 10
0.0
 20
0.0
 30
0.0
  0
XRECORD
  5
225
102
{ACAD_REACTORS
330
208
102
}
330
208
100
AcDbXrecord
 10
0.0
 20
0.0
 30
0.0
  0
XRECORD
  5
222
102
{ACAD_REACTORS
330
208
102
}
330
208
100
AcDbXrecord
 10
0.0
 20
0.0
 30
0.0
  0
XRECORD
  5
21F
102
{ACAD_REACTORS
330
208
102
}
330
208
100
AcDbXrecord
340
0
  0
XRECORD
  5
220
102
{ACAD_REACTORS
330
208
102
}
330
208
100
AcDbXrecord
 70
     0
  0
XRECORD
  5
214
102
{ACAD_REACTORS
330
208
102
}
330
208
100
AcDbXrecord
  1
{714316C4-BF41-4E39-BFC5-BA1BDB2A2D99}
  0
ENDSEC
  0
EOF
